<?xml version="1.0" standalone="no"?>
<!DOCTYPE svg PUBLIC "-//W3C//DTD SVG 1.1//EN" "http://www.w3.org/Graphics/SVG/1.1/DTD/svg11.dtd" >
<svg xmlns="http://www.w3.org/2000/svg">
<metadata>
This is a custom SVG webfont generated by Font Squirrel.
Copyright   : Copyright c 2011 by Pablo Impallari wwwimpallaricom All rights reserved
Designer    : Pablo Impallari
Foundry     : Pablo Impallari wwwimpallaricom
Foundry URL : wwwimpallaricom
</metadata>
<defs>
<font id="LobsterTwoRegular" horiz-adv-x="651" >
<font-face units-per-em="2048" ascent="1638" descent="-410" />
<missing-glyph horiz-adv-x="440" />
<glyph unicode=" "  horiz-adv-x="440" />
<glyph unicode="&#x09;" horiz-adv-x="440" />
<glyph unicode="&#xa0;" horiz-adv-x="440" />
<glyph unicode="!" horiz-adv-x="489" d="M111 125q0 55 39.5 96t95 41t96.5 -41t41 -96t-41 -95t-96 -40q-57 0 -96 39t-39 96zM129 1434h229l-63 -961h-109z" />
<glyph unicode="&#x22;" horiz-adv-x="677" d="M84 1149l43 387h174l-104 -387h-113zM410 1149l43 387h174l-105 -387h-112z" />
<glyph unicode="#" horiz-adv-x="1077" d="M68 289v135h251v258h-251v135h245v653h74v-653h289v653h74v-653h260v-135h-260v-258h260v-135h-260v-344h-74v344h-289v-344h-65v344h-254zM387 424h289v258h-289v-258z" />
<glyph unicode="$" horiz-adv-x="776" d="M57 485q0 66 29 104t72 38q49 0 96 -47q-61 -8 -61 -107q0 -82 51 -130t116 -54v422l-58 38q-52 35 -64.5 44.5t-50 42t-49 54t-25 57.5t-13.5 75q0 94 71 156.5t175 72.5v219h84v-219q104 -8 178 -60t74 -151q0 -45 -15.5 -80.5t-45.5 -35.5q-37 0 -78 37q31 36 31 90 q0 57 -40 95q-38 38 -112 46v-350q68 -39 103.5 -63.5t87 -70.5t75 -103.5t23.5 -127.5q0 -117 -85 -185.5t-220 -72.5v-274h-29l-6 274q-139 4 -226.5 73.5t-87.5 192.5zM250 1049q0 -86 100 -164v303q-100 -28 -100 -139zM412 291q57 8 93 52t36 112q0 125 -129 215v-379z " />
<glyph unicode="%" horiz-adv-x="1257" d="M53 1104q0 147 66.5 240.5t181.5 93.5q229 0 229 -328q0 -137 -61 -240.5t-184 -103.5q-106 0 -169 84t-63 254zM168 1096q0 -250 131 -250q59 0 93 74.5t34 189.5q0 262 -117 262q-63 0 -102 -78.5t-39 -197.5zM315 0l506 1536h123l-506 -1536h-123zM733 338 q0 147 67.5 240.5t182.5 93.5q227 0 227 -328q0 -137 -60 -240.5t-185 -103.5q-106 0 -169 84t-63 254zM850 330q0 -250 129 -250q61 0 95 74.5t34 189.5q0 262 -117 262q-63 0 -102 -78.5t-39 -197.5z" />
<glyph unicode="&#x26;" horiz-adv-x="1316" d="M74 426q0 156 74.5 265.5t201.5 162.5q-184 117 -184 309q0 150 106.5 263.5t296.5 113.5q131 0 222.5 -61.5t91.5 -198.5q0 -78 -31 -123t-82 -45q-55 0 -108 55q33 14 58 54.5t25 93.5q0 74 -48 110.5t-115 36.5q-104 0 -167 -85t-63 -201q0 -35 7.5 -72t27 -90 t70.5 -96.5t125 -61.5q-133 -31 -207 -137.5t-74 -255.5q0 -154 82 -246t242 -92q186 0 266 126t86 347q-16 2 -49 5t-57.5 5t-45.5 2q-133 0 -174 -92l-14 2q6 111 91 179.5t228 68.5q33 0 84.5 -5t73.5 -5q63 0 113.5 22.5t64.5 65.5h13q2 -8 2 -27q0 -78 -78 -145.5 t-193 -75.5q-6 -299 -140 -467t-376 -168q-227 0 -336.5 137.5t-109.5 325.5z" />
<glyph unicode="'" horiz-adv-x="352" d="M84 1149l43 387h174l-104 -387h-113z" />
<glyph unicode="(" horiz-adv-x="552" d="M78 512q0 336 111.5 627t312.5 397l24 -55q-150 -78 -234.5 -360.5t-84.5 -606.5q0 -109 13 -219.5t46 -248.5t104.5 -271t176.5 -238l-45 -49q-209 186 -316.5 452.5t-107.5 571.5z" />
<glyph unicode=")" horiz-adv-x="552" d="M6 1487l47 49q209 -186 315.5 -452.5t106.5 -571.5q0 -336 -111.5 -627t-312.5 -397l-22 55q100 53 173.5 210t108.5 352.5t35 404.5q0 109 -13.5 219.5t-46 248.5t-104 271t-176.5 238z" />
<glyph unicode="*" horiz-adv-x="811" d="M66 1014l243 141l-243 141l49 82l237 -137v299h107v-299l237 137l49 -82l-245 -141l245 -141l-49 -82l-237 137v-299h-107v299l-237 -137z" />
<glyph unicode="+" horiz-adv-x="880" d="M63 506v143h293v250h170v-250h291v-143h-291v-293h-170v293h-293z" />
<glyph unicode="," horiz-adv-x="442" d="M80 141q0 51 43 86t90 35q145 0 145 -164q0 -100 -56 -209.5t-132 -146.5q-29 16 -29 49q0 29 22.5 84t22.5 80q0 41 -16 57.5t-36.5 17.5t-37 27.5t-16.5 83.5z" />
<glyph unicode="-" d="M121 473v143h409v-143h-409z" />
<glyph unicode="." horiz-adv-x="428" d="M78 125q0 55 40 96t95 41t96 -41t41 -96t-41 -95t-96 -40q-57 0 -96 39t-39 96z" />
<glyph unicode="/" horiz-adv-x="1032" d="M31 -512l870 2048h103l-871 -2048h-102z" />
<glyph unicode="0" horiz-adv-x="1204" d="M94 737q0 367 137.5 583t391.5 216q131 0 228 -61.5t151.5 -168t80 -232.5t25.5 -275q0 -123 -16.5 -236.5t-55.5 -219t-96 -183.5t-146 -125t-200 -47q-227 0 -363.5 189.5t-136.5 559.5zM350 743q0 -115 14.5 -216t44 -191t84 -142.5t125.5 -52.5q141 0 209 193.5 t68 492.5q0 330 -72.5 468.5t-177.5 138.5q-137 0 -216 -204t-79 -487z" />
<glyph unicode="1" horiz-adv-x="630" d="M23 1266l6 106q221 0 444 160v-1532h-221v1266h-229z" />
<glyph unicode="2" horiz-adv-x="1034" d="M74 119q0 80 32.5 158.5t85 144t114.5 132.5l125 136q63 70 115 141.5t85 161.5t33 187q0 117 -49.5 185.5t-149.5 68.5q-90 0 -142.5 -53.5t-52.5 -129.5q0 -106 70 -153q-43 -51 -104 -51q-68 0 -106 61t-38 143q0 131 104.5 207t286.5 76q121 0 207 -34t130 -93 t63.5 -121.5t19.5 -136.5q0 -102 -36 -194.5t-92 -162t-125.5 -134t-141.5 -122t-131.5 -110.5t-101.5 -114.5t-48 -123.5q31 9 74 9q55 0 189.5 -18.5t203.5 -18.5q104 0 154.5 30.5t97.5 110.5q31 -78 31 -143q0 -176 -217 -176q-86 0 -251 32.5t-206 32.5 q-109 0 -203 -51q-26 40 -26 117v6z" />
<glyph unicode="3" horiz-adv-x="1091" d="M61 381q0 117 49.5 180.5t137.5 63.5q116 -1 153 -99q-149 -8 -149 -168q0 -125 72.5 -176t169.5 -51q139 0 209.5 93t70.5 220q0 156 -104.5 275t-296.5 137q168 39 261 140.5t93 213.5q0 92 -59.5 157t-161.5 65q-84 0 -131 -44.5t-47 -105.5q0 -92 104 -164 q-55 -63 -125 -63q-66 0 -113 56t-47 144q0 133 107.5 206t263.5 73q168 0 291 -83t123 -239q0 -109 -62.5 -209t-164.5 -149q172 -68 249.5 -164t77.5 -231q0 -188 -157.5 -329.5t-374.5 -141.5q-66 0 -130.5 14t-139 52t-122 122t-47.5 205z" />
<glyph unicode="4" horiz-adv-x="974" d="M20 594q8 66 44 153t74 159.5t69 174t31 199.5q0 164 -39 252q96 -2 151.5 -76t55.5 -194q0 -104 -43.5 -199.5t-104.5 -191t-84 -156.5h375v790l221 31v-821h170l-4 -121h-166v-594h-221v594h-529z" />
<glyph unicode="5" horiz-adv-x="1034" d="M66 346q0 111 46 170t117 59q104 0 152 -104q-137 -12 -137 -139q0 -96 68.5 -154.5t162.5 -58.5q127 0 192.5 104.5t65.5 243.5q0 158 -87 246t-230 88q-166 0 -295 -94l143 792q225 -33 305 -33q150 0 291 68q27 -68 27 -115q0 -157 -191 -157h-2q-49 0 -107.5 9 t-127 23.5t-92.5 18.5l-84 -424q121 63 249 63q211 0 322 -136t111 -335q0 -207 -122 -350t-354 -143q-78 0 -147.5 18.5t-134 56t-103 111.5t-38.5 172z" />
<glyph unicode="6" horiz-adv-x="1114" d="M88 662q0 238 61.5 431t194.5 318t320 125q133 0 217 -58.5t84 -136.5q0 -45 -28 -82.5t-79 -37.5q-14 0 -51 8q20 27 20 71q0 57 -44 99.5t-111 42.5q-106 0 -191.5 -117t-130.5 -298t-45 -384q0 -500 285 -500q143 0 208.5 107.5t65.5 245.5q0 133 -61.5 216t-175.5 83 q-121 0 -197 -119q-29 35 -29 74q0 70 70 124t184 54q170 0 282 -123t112 -311q0 -205 -125 -355.5t-353 -150.5q-221 0 -352 162.5t-131 511.5z" />
<glyph unicode="7" horiz-adv-x="917" d="M29 1401q0 133 204 133q82 0 256.5 -25.5t260.5 -25.5q83 0 159 16q2 -4 2 -16q0 -53 -47 -142.5t-114.5 -196t-135 -229t-114.5 -277.5t-47 -304q0 -166 71 -320q-61 -32 -118 -32h-3q-109 0 -158.5 101t-49.5 226q0 119 49 250t121 241l142 208q71 98 121 182t50 133 q-156 39 -270 39q-215 0 -215 -123q0 -23 4 -35q-68 2 -118 60.5t-50 136.5z" />
<glyph unicode="8" horiz-adv-x="1083" d="M78 440q0 154 76.5 259.5t218.5 154.5q-109 61 -164 151.5t-55 188.5q0 139 102 240.5t283 101.5q174 0 279.5 -96.5t105.5 -237.5q0 -98 -53.5 -193.5t-155.5 -154.5q150 -49 221.5 -156.5t71.5 -246.5q0 -195 -128 -329t-345 -134q-209 0 -333 126t-124 326zM289 436 q0 -111 67.5 -206t180.5 -95q106 0 170.5 89t64.5 208q0 215 -246 340q-102 -35 -169.5 -131t-67.5 -205zM350 1217q0 -86 46.5 -164t140.5 -131q90 53 142 143t52 176q0 82 -49 141.5t-135 59.5q-88 0 -142.5 -65.5t-54.5 -159.5z" />
<glyph unicode="9" horiz-adv-x="1112" d="M63 1051q0 195 126 340t350 145q221 0 353 -164t132 -510q0 -238 -61.5 -431t-195.5 -318t-321 -125q-129 0 -212.5 84t-83.5 168q0 45 27.5 82.5t78.5 37.5q14 0 51 -8q-20 -27 -20 -71q0 -57 44 -99.5t111 -42.5q162 0 263.5 216t101.5 526q0 534 -284 534h-1 q-94 0 -159.5 -64.5t-90 -143.5t-24.5 -158q0 -125 61.5 -202t175.5 -77q121 0 197 119q29 -35 29 -74q0 -70 -70 -124t-184 -54q-170 0 -282 116.5t-112 297.5z" />
<glyph unicode=":" horiz-adv-x="514" d="M121 297q0 55 40 96t95 41t96 -41t41 -96t-41 -95t-96 -40q-57 0 -96 39t-39 96zM121 791q0 55 40 96t95 41t96 -41t41 -96.5t-41 -95.5t-96 -40q-57 0 -96 39.5t-39 96.5z" />
<glyph unicode=";" horiz-adv-x="505" d="M113 791q0 55 40 96t95 41t96 -41t41 -96.5t-41 -95.5t-96 -40q-57 0 -96 39.5t-39 96.5zM115 311q0 51 43 86t90 35q145 0 145 -164q0 -100 -56 -209.5t-132 -146.5q-29 16 -29 49q0 29 22.5 84t22.5 80q0 41 -16.5 57.5t-37 17.5t-36.5 27.5t-16 83.5z" />
<glyph unicode="&#x3c;" horiz-adv-x="735" d="M55 461v110l563 308v-113l-448 -246l448 -196v-117z" />
<glyph unicode="=" horiz-adv-x="954" d="M129 272v164h696v-164h-696zM129 647v164h696v-164h-696z" />
<glyph unicode="&#x3e;" horiz-adv-x="735" d="M117 207v117l448 196l-448 246v113l563 -308v-110z" />
<glyph unicode="?" horiz-adv-x="849" d="M47 1149q0 113 90 199t277 86q188 0 288.5 -88.5t100.5 -227.5q0 -82 -38 -152.5t-94 -123.5l-110 -105q-55 -51 -96 -118.5t-45 -143.5h-94q-6 31 -7 57q0 61 30 122t73 111l86 102q43 51 72.5 117.5t29.5 135.5q0 115 -63.5 169t-153.5 54q-76 0 -132 -46t-56 -117 q0 -51 45 -100.5t127 -61.5q-33 -86 -131 -86q-78 0 -138.5 58.5t-60.5 158.5zM238 125q0 55 39.5 96t95 41t96.5 -41t41 -96t-41 -95t-96 -40q-57 0 -96 39t-39 96z" />
<glyph unicode="@" horiz-adv-x="1157" d="M70 336q0 334 205.5 569.5t492.5 235.5q55 0 104.5 -11.5t102.5 -42t85 -99t32 -169.5q0 -205 -105.5 -372.5t-251.5 -167.5q-70 0 -100 51q-51 -84 -133 -84q-57 0 -93 46t-36 134q0 145 86 302t190 157q53 0 80 -35l8 31l113 -13l-92 -393q-14 -57 -15 -74 q0 -41 31 -41q78 0 148.5 151t70.5 290q0 109 -54 180.5t-177 71.5q-150 0 -275 -109.5t-189.5 -263.5t-64.5 -303q0 -309 314 -309q106 0 191 46t120 119q47 -20 47 -88q0 -98 -115 -160.5t-303 -62.5q-78 0 -147.5 21.5t-133 66.5t-100 129t-36.5 197zM479 459 q0 -39 14.5 -73t47.5 -34q44 0 77 51q0 20 7 39l88 344q-18 31 -43 31q-74 0 -132.5 -131t-58.5 -227z" />
<glyph unicode="A" horiz-adv-x="1234" d="M-88 719q0 96 109.5 153.5t279.5 57.5q31 0 96 -4q113 270 262.5 440t317.5 170q90 0 164 -29v-1507h-226v737q-152 74 -378 101q-111 -395 -111 -725q0 -213 72 -346q-55 0 -99.5 11t-91.5 44t-73.5 104.5t-26.5 177.5q0 326 158 742q-123 -4 -204 -35t-81 -80 q0 -8 2 -12q53 -16 53 -68q0 -65 -82 -65h-2q-57 0 -98 32.5t-41 100.5zM557 905q219 -39 358 -106v639q-96 -6 -190 -153t-168 -380z" />
<glyph unicode="B" horiz-adv-x="1372" d="M35 1042q0 205 193.5 349.5t463.5 144.5q229 0 351 -105.5t122 -256.5q0 -78 -42 -155t-117 -130q160 -16 254 -127t94 -301q0 -76 -15.5 -153t-50.5 -158.5t-107.5 -133t-170.5 -51.5q-96 0 -162 46t-66 130q0 45 9 70q53 -80 151 -80q170 0 170 309q0 367 -283 367 q-43 0 -133 -8v-799h-221v1313l221 30v-462h29q111 0 191.5 98t80.5 209q0 123 -84 198.5t-241 75.5q-190 0 -326.5 -109.5t-136.5 -312.5q0 -43 6 -78.5t15.5 -61.5t18.5 -43t19.5 -32.5t12.5 -19.5q-117 0 -181.5 60.5t-64.5 176.5z" />
<glyph unicode="C" horiz-adv-x="1034" d="M96 717q0 152 25.5 288t84 260t168 197.5t259.5 73.5q164 0 273.5 -83t109.5 -236q0 -143 -109 -144q-63 0 -96 37q18 14 33.5 60.5t15.5 101.5q0 94 -46 142t-126 48q-119 0 -199.5 -105.5t-115.5 -261t-35 -343.5q0 -629 434 -629q261 0 365 246l51 -21 q-51 -182 -194.5 -281.5t-340.5 -99.5q-266 0 -411.5 190.5t-145.5 559.5z" />
<glyph unicode="D" horiz-adv-x="1443" d="M37 1055q0 195 187.5 338t459.5 143q188 0 329.5 -65.5t221.5 -179t119 -249t39 -290.5q0 -195 -50.5 -373t-141.5 -292t-202 -114q-125 0 -282 119v-92h-221v1313l221 30v-1183q70 -53 143 -54q100 0 168 102.5t94.5 241t26.5 300.5q0 381 -113.5 546.5t-380.5 165.5 q-195 0 -328.5 -115.5t-133.5 -308.5q0 -156 112 -233q-268 0 -268 250z" />
<glyph unicode="E" horiz-adv-x="915" d="M84 428q0 150 72.5 261.5t203.5 164.5q-184 117 -184 309q0 150 106.5 263.5t297.5 113.5q131 0 222 -61.5t91 -198.5q0 -78 -31 -123t-82 -45q-55 0 -108 55q33 14 58.5 54.5t25.5 93.5q0 74 -48.5 110.5t-115.5 36.5q-104 0 -167 -85t-63 -195q0 -33 6.5 -70t27 -93 t70.5 -100.5t126 -62.5q-133 -31 -207 -137.5t-74 -255.5q0 -154 82 -246t240 -92q139 0 241.5 70t141.5 174l51 -21q-53 -178 -207.5 -281.5t-339.5 -103.5q-217 0 -326.5 138.5t-109.5 326.5z" />
<glyph unicode="F" horiz-adv-x="1134" d="M43 1073q0 207 141.5 335t427.5 128q70 0 186.5 -12.5t184.5 -12.5q111 0 182 25q-6 -129 -52 -171t-132 -42q-88 0 -272 37v-469h303v-121h-303v-770h-222v1397q-14 2 -38 2q-254 0 -254 -303q0 -104 26.5 -181t65.5 -110q-244 0 -244 268z" />
<glyph unicode="G" horiz-adv-x="1214" d="M68 862q0 188 61 337t204.5 245t352.5 96q109 0 197 -23.5t154.5 -93t66.5 -180.5q0 -170 -133 -170q-8 0 -14.5 1t-12.5 1t-12 2l-11 4q-6 2 -13 5.5t-11 6.5t-13.5 7t-13.5 7t-14 9t-16 10q4 0 13 3.5t22.5 13.5t24.5 25.5t19.5 42t8.5 61.5q0 94 -59.5 142t-153.5 48 q-129 0 -222.5 -86t-135.5 -217t-42 -285q0 -219 88.5 -363t235.5 -144q133 0 210 126.5t93 364.5l199 -2v-770q0 -510 -418 -510q-188 0 -271 93t-83 220q0 104 56 177t181 73q84 0 136.5 -36.5t52.5 -106.5q0 -29 -11 -57q-53 57 -129 57q-68 0 -102.5 -38t-34.5 -99 q0 -86 60.5 -144.5t144.5 -58.5q82 0 138.5 63.5t56.5 210.5v488q-106 -195 -343 -195q-227 0 -367 176t-140 463z" />
<glyph unicode="H" horiz-adv-x="1421" d="M37 1059q0 190 165 333.5t376 143.5q31 0 84 -4v-641h442v577l223 64v-1532h-223v770h-442v-770h-224v1427q-113 -45 -177 -145t-64 -235q0 -86 17 -141.5t33.5 -72t43.5 -28.5q-115 0 -184.5 61.5t-69.5 192.5z" />
<glyph unicode="I" horiz-adv-x="825" d="M37 1053q0 193 186.5 338t421.5 145q33 0 86 -4v-1532h-225v1415q-139 -39 -218 -135t-79 -233q0 -98 24.5 -150.5t69.5 -91.5q-266 0 -266 248z" />
<glyph unicode="J" horiz-adv-x="886" d="M2 -115q0 104 55.5 179t182.5 75q174 0 174 -168q0 -4 -1 -13t-1 -15q-53 51 -119 51q-57 0 -95 -42t-38 -114q0 -80 60.5 -129t137.5 -49q86 0 145.5 68.5t59.5 201.5v1487q-141 -33 -218 -132t-77 -247q0 -160 94 -233q-127 0 -196.5 59.5t-69.5 177.5 q0 203 186.5 348.5t426.5 145.5h84v-1454q0 -248 -96.5 -377t-325.5 -129q-188 0 -278.5 84t-90.5 225z" />
<glyph unicode="K" horiz-adv-x="1327" d="M35 1053q0 193 186.5 338t421.5 145q33 0 86 -4v-662l367 656h180l-459 -658q74 4 88 4q100 0 168 -25.5t100.5 -75.5t45 -105.5t12.5 -135.5q0 -53 -5 -165.5t-5 -149.5q0 -174 116 -215q-117 -35 -176 -35q-88 0 -134 57.5t-46 153.5q0 53 11.5 187.5t11.5 185.5 q0 246 -195 246q-35 0 -80 -11v-784h-225v1417q-143 -41 -225 -137t-82 -238q0 -162 86 -237q-109 0 -178.5 60.5t-69.5 187.5z" />
<glyph unicode="L" horiz-adv-x="927" d="M37 1032q0 193 186.5 338.5t421.5 145.5q33 -1 86 -5l-2 -6v-1464q66 -14 161 -62.5t193.5 -84t198.5 -35.5q72 0 158 41q6 -28 6 -56q0 -88 -62.5 -149.5t-162.5 -61.5q-72 0 -159 50.5t-156.5 111t-167 110.5t-185.5 50q-31 0 -47 -2v1442q-139 -39 -218 -135.5 t-79 -233.5q0 -98 24.5 -150.5t69.5 -91.5q-266 0 -266 248z" />
<glyph unicode="M" horiz-adv-x="1540" d="M43 1038q0 195 169 346.5t349 151.5q74 0 125 -29l205 -1190l239 1190h234l115 -1507h-234l-82 1073l-217 -1073h-219l-182 1053l-166 -1053h-123l225 1434q-268 -61 -268 -392q0 -186 76 -237q-113 0 -179.5 58.5t-66.5 174.5z" />
<glyph unicode="N" horiz-adv-x="1452" d="M41 1069q0 176 134 321.5t333 145.5q78 0 143 -29l570 -1314v1339h137v-1532h-275l-514 1153v-1153h-137v1411q-239 -82 -239 -344q0 -180 98 -262q-129 0 -189.5 63.5t-60.5 200.5z" />
<glyph unicode="O" horiz-adv-x="1437" d="M37 1032q0 209 202.5 356.5t493.5 147.5q145 0 260 -43t186.5 -114.5t119 -172t66.5 -209t19 -231.5q0 -145 -27.5 -275.5t-86 -247t-170 -186t-260.5 -69.5q-223 0 -360.5 161.5t-137.5 514.5q0 125 18.5 241.5t58.5 222t112.5 169t168.5 63.5q54 -1 105 -17 q-96 -57 -153.5 -272t-57.5 -444q0 -82 9 -155t31.5 -152.5t74 -128t125.5 -48.5q106 0 176.5 102.5t98.5 248t28 323.5q0 156 -23.5 271.5t-62.5 186.5t-96.5 114t-118 58t-136.5 15q-215 0 -352 -118.5t-137 -339.5q0 -156 63 -199q-113 0 -175 57.5t-62 169.5z" />
<glyph unicode="P" horiz-adv-x="1230" d="M37 1053q0 195 187.5 339t437.5 144q264 0 415.5 -125t151.5 -315q0 -193 -131 -352.5t-357 -159.5h-45v-584h-221v1313l221 30v-696q168 2 254 126t86 292q0 76 -14 137.5t-54 125t-125 99t-212 35.5q-188 0 -311 -110.5t-123 -302.5q0 -166 86 -244q-246 0 -246 248z " />
<glyph unicode="Q" horiz-adv-x="1488" d="M35 1030q0 209 211 357.5t504 148.5q145 0 257.5 -43t182.5 -113.5t114 -172t61 -206t17 -225.5q0 -473 -225 -674q51 -51 88 -80.5t95.5 -55t121.5 -25.5q20 0 49 4q-16 -70 -53 -100.5t-104 -30.5q-72 0 -133.5 35.5t-93 74.5t-78.5 107q-96 -43 -213 -43 q-221 0 -358.5 161.5t-137.5 514.5q0 125 18.5 241.5t58.5 222t112.5 169t168.5 63.5q54 -1 105 -17q-96 -57 -153.5 -273t-57.5 -449q0 -221 55 -342q81 28 162 28h6q102 0 193 -65q127 178 127 585q0 188 -31 318.5t-91.5 197t-130 93t-163.5 26.5q-217 0 -363.5 -120.5 t-146.5 -342.5q0 -156 63 -194q-113 0 -175 58.5t-62 166.5zM684 217q57 -74 147 -74q59 0 111 35q-63 68 -145 68q-57 0 -113 -29z" />
<glyph unicode="R" horiz-adv-x="1335" d="M35 1053q0 195 185.5 339t443.5 144q242 0 383 -93t141 -245q0 -90 -49 -182t-140 -150q139 -20 185.5 -105t46.5 -231q0 -53 -5 -165.5t-5 -149.5q0 -174 116 -215q-117 -35 -176 -35q-88 0 -134 57.5t-46 153.5q0 53 11.5 187.5t11.5 185.5q0 246 -195 246 q-57 0 -115 -15v-780h-221v1313l221 30v-477h54q117 0 188.5 95.5t71.5 216.5q0 119 -80 201.5t-274.5 82.5t-319.5 -113.5t-125 -306.5q0 -39 3 -71.5t8 -56t10.5 -40t13.5 -28.5t12 -18.5t11 -13.5l9 -9q-98 0 -169.5 61.5t-71.5 186.5z" />
<glyph unicode="S" horiz-adv-x="1009" d="M70 305q0 113 60 206t163 93q47 0 77.5 -25.5t55.5 -91.5q-88 -4 -126 -59t-38 -121q0 -102 81 -160.5t173 -58.5q96 0 156.5 74t60.5 205q0 92 -32.5 159.5t-86 107.5t-117.5 72l-128 63q-64 32 -117 73t-86 111.5t-33 166.5q0 197 121 305.5t291 108.5q37 0 74.5 -4 t91 -21.5t93.5 -46t68.5 -83t28.5 -126.5q0 -80 -33.5 -126t-89.5 -46q-49 0 -88 43q59 43 60 142q0 78 -50.5 136t-146.5 58q-104 0 -162.5 -70.5t-58.5 -177.5q0 -80 35.5 -139t93 -95t126 -67.5t138.5 -69.5t127 -87t93 -132t36 -194q0 -229 -138 -341t-339 -112 q-176 0 -305 83t-129 247z" />
<glyph unicode="T" horiz-adv-x="1374" d="M41 1100q0 186 148.5 310t461.5 124q115 0 272.5 -23.5t237.5 -23.5q143 0 242 43q6 -37 6 -70q0 -170 -217 -170q-113 0 -336 49v-1339h-221v1372q-29 4 -82 4q-180 0 -267 -65.5t-87 -223.5q0 -188 84 -284q-242 0 -242 297z" />
<glyph unicode="U" horiz-adv-x="1576" d="M33 1051q0 197 189.5 341t439.5 144q43 0 96 -10v-1102q0 -168 67.5 -224.5t182 -56.5t183.5 57.5t69 227.5v1104h225v-1110q0 -70 -19.5 -135.5t-67.5 -138t-152.5 -117.5t-254.5 -45q-119 0 -210 30.5t-142 76.5t-82 107.5t-41 114t-10 105.5v1028 q-154 -35 -238 -141.5t-84 -270.5q0 -45 6.5 -81.5t16.5 -61.5t19.5 -41t19.5 -29.5t12 -15.5q-90 0 -157.5 64.5t-67.5 179.5z" />
<glyph unicode="V" horiz-adv-x="1318" d="M39 1077q0 195 142.5 327t385.5 132q31 0 88 -8l273 -1364l284 1362h117l-344 -1526h-227l-305 1419q-152 0 -216.5 -92t-64.5 -233q0 -162 96 -287q-98 0 -163.5 61.5t-65.5 208.5z" />
<glyph unicode="W" horiz-adv-x="2039" d="M39 1077q0 195 142.5 327t385.5 132q31 0 88 -8l293 -1364l264 1362h152l293 -1362l264 1362h117l-324 -1526h-227l-246 1110l-235 -1110h-228l-325 1419q-143 0 -212 -94t-69 -231q0 -162 96 -287q-98 0 -163.5 61.5t-65.5 208.5z" />
<glyph unicode="X" horiz-adv-x="1259" d="M41 1077q0 201 150.5 331t357.5 130q45 0 84 -6l264 -617l242 611h96l-287 -731l342 -795h-221l-268 616l-250 -616h-96l293 737l-314 725q-111 -31 -180.5 -144.5t-69.5 -254.5q0 -162 76 -238q-111 0 -165 53.5t-54 198.5z" />
<glyph unicode="Y" horiz-adv-x="1245" d="M41 1073q0 195 135 329t354 134q31 0 84 -4l297 -787l265 781h106l-328 -895v-631h-221v631l-321 831q-129 -35 -186.5 -139t-57.5 -238q0 -162 102 -280q-229 0 -229 268z" />
<glyph unicode="Z" horiz-adv-x="1001" d="M37 0l674 1444q-154 10 -293 10q-168 0 -174 -41q49 -33 49 -84q0 -35 -24.5 -60.5t-63.5 -25.5q-51 0 -96.5 41t-45.5 102q0 59 62.5 104.5t163.5 45.5h696l-672 -1427q27 0 120 -3.5t149 -3.5q217 0 235 43q-51 33 -51 86q0 37 27.5 59.5t68.5 22.5q49 0 91 -32.5 t42 -90.5q0 -74 -61.5 -132t-157.5 -58h-739z" />
<glyph unicode="[" horiz-adv-x="583" d="M145 -512v2048h396v-127h-246v-1794h248v-127h-398z" />
<glyph unicode="\" horiz-adv-x="1032" d="M29 1536h102l870 -2048h-102z" />
<glyph unicode="]" horiz-adv-x="583" d="M41 -385h248v1794h-246v127h395v-2048h-397v127z" />
<glyph unicode="^" horiz-adv-x="862" d="M-131 1149l340 342h43l197 -342h-46l-176 207l-288 -207h-70z" />
<glyph unicode="_" horiz-adv-x="897" d="M90 0v143h717v-143h-717z" />
<glyph unicode="`" horiz-adv-x="411" d="M-262 1536h174l145 -387h-112z" />
<glyph unicode="a" horiz-adv-x="993" d="M66 457q0 137 36.5 263t129 220t223.5 94q139 0 190 -108v98h205v-696q0 -184 92 -185q100 0 148 224h75q-23 -121 -56.5 -202t-75.5 -117t-76.5 -48t-75.5 -12q-160 0 -199 194q-33 -84 -103.5 -139t-162.5 -55q-143 0 -246.5 115.5t-103.5 353.5zM281 471 q0 -328 186 -328q66 0 122 66.5t56 157.5v467q-37 88 -121 88q-82 0 -140 -75t-80.5 -173.5t-22.5 -202.5z" />
<glyph unicode="b" horiz-adv-x="856" d="M94 367l2 1038l205 29v-486q76 80 195 80q59 0 115.5 -20.5t109.5 -66.5t85 -137t32 -218q0 -250 -118 -424t-331 -174q-295 0 -295 379zM301 313q0 -184 121 -184q111 0 172 120t61 290q0 164 -57 273.5t-158 109.5q-76 0 -139 -70v-539z" />
<glyph unicode="c" horiz-adv-x="745" d="M72 465q0 96 16 186t55 181.5t118 146.5t190 55q129 0 196.5 -62.5t67.5 -183.5q0 -53 -20.5 -86.5t-59.5 -33.5q-45 0 -76 43q35 29 35 106q0 49 -29.5 79t-83.5 30q-70 0 -114.5 -71t-61 -163t-16.5 -200q0 -199 63.5 -274t177.5 -75q209 0 312 224h69 q-51 -156 -177 -267.5t-271 -111.5q-162 0 -276.5 115.5t-114.5 361.5z" />
<glyph unicode="d" horiz-adv-x="993" d="M66 457q0 137 36.5 263t129 220t223.5 94q139 0 190 -108v479l205 29v-1106q0 -184 92 -185q100 0 148 224h75q-23 -121 -56.5 -202t-75.5 -117t-76.5 -48t-75.5 -12q-160 0 -199 194q-33 -84 -103.5 -139t-162.5 -55q-143 0 -246.5 115.5t-103.5 353.5zM281 471 q0 -328 186 -328q66 0 122 66.5t56 157.5v467q-37 88 -121 88q-82 0 -140 -75t-80.5 -173.5t-22.5 -202.5z" />
<glyph unicode="e" horiz-adv-x="753" d="M72 461q0 94 20.5 188t63.5 183.5t122.5 145.5t184.5 56q272 0 272 -266q0 -143 -118.5 -239.5t-325.5 -118.5q14 -152 75.5 -209.5t159.5 -57.5q223 0 324 224h65q-53 -156 -187 -267.5t-286 -111.5q-158 0 -264 114.5t-106 358.5zM289 489q145 23 230 104t85 195 q0 145 -102 146q-68 0 -118 -70.5t-72.5 -169.5t-22.5 -205z" />
<glyph unicode="f" horiz-adv-x="489" d="M-172 -313q0 170 266 284v1209q0 172 82 264t217 92q127 0 206 -79t79 -228h-80q-12 88 -46 132t-103 44q-90 0 -120 -71t-30 -212v-98h166v-72h-166v-1116q0 -199 -68.5 -273.5t-187.5 -74.5q-215 0 -215 199zM-92 -307q0 -41 26.5 -70t67.5 -29q55 0 73.5 58.5 t18.5 179.5v64q-186 -90 -186 -203z" />
<glyph unicode="g" horiz-adv-x="993" d="M66 477q0 133 36.5 254t129 212t223.5 91q139 0 190 -108v98h205v-981q115 37 167 99.5t73 224.5h75q-31 -203 -97.5 -278t-217.5 -120v-131q0 -180 -71.5 -265t-184.5 -85q-98 0 -157.5 57.5t-59.5 143.5q0 176 268 286v177q-88 -123 -229 -123q-143 0 -246.5 110.5 t-103.5 337.5zM281 492q0 -308 186 -308q66 0 122 63.5t56 149.5v437q-37 88 -121 88q-82 0 -140 -72t-80.5 -165t-22.5 -193zM457 -303q0 -47 26.5 -75t71.5 -28q51 0 70.5 39t19.5 117v144q-188 -86 -188 -197z" />
<glyph unicode="h" horiz-adv-x="956" d="M94 0v1405l205 29v-566q88 166 246 166q280 0 280 -363q0 -50 -6 -173t-6 -179q0 -176 92 -176q100 0 148 224h75q-68 -379 -280 -379q-121 0 -180.5 89t-59.5 224q0 25 3 176.5t3 179.5q0 221 -131 222q-129 0 -184 -224v-655h-205z" />
<glyph unicode="i" horiz-adv-x="444" d="M59 1319q0 55 40 96t95.5 41t96.5 -41t41 -96t-41 -95t-96 -40q-57 0 -96.5 39t-39.5 96zM96 285v739h205v-696q0 -184 92 -185q100 0 148 224h75q-23 -121 -56.5 -202t-75.5 -117t-76.5 -48t-75.5 -12q-127 0 -181.5 88t-54.5 209z" />
<glyph unicode="j" horiz-adv-x="444" d="M-172 -311q0 176 268 286v1049h205v-981q115 37 167 99.5t73 224.5h75q-31 -203 -97 -278t-218 -120v-131q0 -180 -71.5 -265t-184.5 -85q-98 0 -157.5 57.5t-59.5 143.5zM-92 -303q0 -47 26.5 -75t71.5 -28q51 0 70.5 39t19.5 117v144q-188 -86 -188 -197zM59 1319 q0 55 40 96t95.5 41t96.5 -41t41 -96t-41 -95t-96 -40q-57 0 -96.5 39t-39.5 96z" />
<glyph unicode="k" horiz-adv-x="935" d="M94 0v1405l205 29v-744l352 334h199l-342 -276h20q279 0 279 -320q0 -31 -3 -97.5t-3 -80.5q0 -106 80 -107q106 0 153 224h76q-18 -100 -47 -174t-56.5 -112t-63.5 -60.5t-61.5 -27.5t-56.5 -5q-117 0 -174 65.5t-57 167.5q0 10 1 93t1 98q0 180 -129 180 q-113 0 -168 -158v-434h-205z" />
<glyph unicode="l" horiz-adv-x="442" d="M96 285v1120l205 29v-1106q0 -184 92 -185q100 0 148 224h75q-23 -121 -56.5 -202t-75.5 -117t-76.5 -48t-75.5 -12q-127 0 -181.5 88t-54.5 209z" />
<glyph unicode="m" horiz-adv-x="1419" d="M94 0v1024h205v-141q79 151 223 151h2q184 0 242 -182q84 182 235 182q281 0 281 -366q0 -47 -6 -170t-6 -179q0 -176 92 -176q100 0 147 224h76q-68 -379 -280 -379q-121 0 -180.5 89t-59.5 224q0 25 3 176.5t3 179.5q0 221 -131 222q-129 0 -160 -224v-655h-205v684 q0 90 -22.5 142.5t-91.5 52.5q-61 0 -97 -52.5t-65 -171.5v-655h-205z" />
<glyph unicode="n" horiz-adv-x="956" d="M94 0v1024h205v-156q88 166 246 166q280 0 280 -363q0 -50 -6 -173t-6 -179q0 -176 92 -176q100 0 148 224h75q-68 -379 -280 -379q-121 0 -180.5 89t-59.5 224q0 25 3 176.5t3 179.5q0 221 -131 222q-129 0 -184 -224v-655h-205z" />
<glyph unicode="o" horiz-adv-x="858" d="M70 465q0 98 20.5 191.5t63.5 181.5t124.5 142t190.5 54q274 0 322 -323h12q162 0 280 123l31 -56q-39 -63 -126 -107t-187 -61q0 -12 1 -40.5t1 -43.5q0 -252 -92.5 -395t-257.5 -143q-156 0 -269.5 116.5t-113.5 360.5zM291 473q0 -180 57 -255t141 -75q211 0 211 412 q0 33 -2 49q-59 4 -84.5 27.5t-25.5 75.5q0 47 20.5 66.5t61.5 21.5q-45 127 -148 127q-80 0 -134 -73t-75.5 -169t-21.5 -207z" />
<glyph unicode="p" horiz-adv-x="866" d="M94 -512v1612h207v-158q88 92 213 92q152 0 246 -129t94 -379t-96 -394t-256 -144q-123 0 -201 98v-547zM301 188q54 -69 133 -69h2q98 0 155.5 117.5t57.5 298.5q0 193 -62.5 279.5t-144.5 86.5q-88 0 -141 -98v-615z" />
<glyph unicode="q" horiz-adv-x="911" d="M66 457q0 137 36.5 263t129 220t223.5 94q139 0 188 -104v94h207v-1485l-207 -51v621q-86 -121 -227 -121q-143 0 -246.5 115.5t-103.5 353.5zM281 471q0 -328 186 -328q59 0 113.5 57.5t62.5 137.5v502q-37 82 -119 82t-140 -75t-80.5 -173.5t-22.5 -202.5z" />
<glyph unicode="r" horiz-adv-x="688" d="M94 0v1024h205v-172q39 59 65.5 92t73.5 61.5t103 28.5q66 0 100.5 -34.5t34.5 -88.5q0 -55 -31 -80.5t-63 -25.5q-23 0 -53.5 25.5t-61.5 25.5q-70 0 -168 -102v-754h-205z" />
<glyph unicode="s" horiz-adv-x="700" d="M49 291q0 109 74 149l35 98l38 109l32 95q22 69 31 107t20.5 93t15.5 105l207 40l66 -260l50 -197q14 -56 29 -128t20 -120t5 -112q51 36 125 97h86q-86 -119 -244 -232q-43 -74 -125 -110.5t-160 -36.5q-162 0 -233.5 91t-71.5 212zM145 293q33 -152 166 -152 q144 1 144 144q0 76 -10.5 134t-44 190t-60.5 259q-8 -68 -26.5 -139.5t-48 -158.5t-44.5 -136q45 -31 45 -90q0 -37 -19.5 -58.5t-45.5 -21.5q-33 0 -56 29z" />
<glyph unicode="t" horiz-adv-x="483" d="M27 952v72h69v283l205 28v-311h158v-72h-158v-624q0 -184 96 -185q57 0 106.5 57.5t78.5 166.5h75q-33 -121 -73.5 -202t-85.5 -117t-81 -48t-79 -12q-133 0 -187.5 87t-54.5 210v667h-69z" />
<glyph unicode="u" horiz-adv-x="929" d="M94 305v719h205v-696q0 -184 123 -185q63 0 111.5 61.5t48.5 162.5v657h204v-696q0 -184 93 -185q100 0 147 224h76q-23 -121 -56.5 -202t-75.5 -117t-77 -48t-76 -12q-160 0 -199 192q-37 -96 -99 -144t-136 -48q-131 0 -210 75.5t-79 241.5z" />
<glyph unicode="v" horiz-adv-x="817" d="M94 268v756h205v-696q0 -184 119 -185q80 0 133 80t74.5 190.5t21.5 241.5q0 127 -18 215q-14 -16 -54 -16q-45 0 -71.5 33t-26.5 76t27.5 73.5t77.5 30.5q78 0 125 -91t47 -286q0 -125 -20.5 -241.5t-62.5 -224t-119 -172t-177 -64.5q-113 0 -197 75.5t-84 204.5z" />
<glyph unicode="w" horiz-adv-x="1275" d="M94 305v719h205v-696q0 -184 123 -185q63 0 111.5 61.5t48.5 162.5v657h204v-696q0 -184 119 -185q80 0 133.5 80t75 190.5t21.5 241.5q0 127 -19 215q-14 -16 -53 -16q-45 0 -71.5 33t-26.5 76t27.5 73.5t76.5 30.5q78 0 125 -91t47 -286q0 -125 -20.5 -241.5 t-62.5 -224t-118.5 -172t-177.5 -64.5q-82 0 -152.5 42t-105.5 117q-78 -159 -219 -159h-2q-131 0 -210 75.5t-79 241.5z" />
<glyph unicode="x" horiz-adv-x="1019" d="M92 362q8 39 23.5 132.5t27 153t35 140t51 129t73.5 83t106 34.5q84 0 136 -61t95 -182l82 -228q156 215 156 342q0 25 -3 35q-18 -8 -43 -8q-47 0 -79.5 30.5t-32.5 77.5q0 45 30.5 76t77.5 31q61 0 101.5 -54.5t40.5 -148.5q0 -102 -52.5 -209.5t-162.5 -261.5l41 -108 q41 -113 77.5 -167.5t85.5 -54.5q57 0 105.5 69t54.5 148h62q-8 -113 -44 -191.5t-85.5 -115.5t-91 -51t-80.5 -14q-90 0 -157 81t-136 269l-215 -338h-140l318 442l-90 254q-37 104 -61.5 144.5t-53.5 40.5q-115 0 -176 -519h-76z" />
<glyph unicode="y" horiz-adv-x="929" d="M94 305v719h205v-696q0 -184 123 -185q61 0 110.5 58.5t49.5 154.5v668h204v-981q115 37 167.5 99.5t72.5 224.5h76q-31 -203 -97.5 -278t-218.5 -120v-131q0 -180 -71.5 -265t-184.5 -85q-98 0 -157.5 57.5t-59.5 143.5q0 176 269 286v129q-77 -116 -197 -116h-2 q-131 0 -210 75.5t-79 241.5zM393 -303q0 -47 27 -75t72 -28q51 0 70.5 39t19.5 117v144q-188 -86 -189 -197z" />
<glyph unicode="z" horiz-adv-x="847" d="M125 903q0 121 211 121h508l-438 -881q209 -12 264 -12q76 0 84 43q-14 4 -25.5 20.5t-11.5 32.5q0 31 24.5 49.5t59.5 18.5q47 0 83 -32t36 -89q0 -66 -66 -120t-168 -54h-536l442 913h-176q-117 0 -117 -28q0 -12 17.5 -33t17.5 -33q0 -23 -26.5 -43t-65.5 -20 q-55 0 -86 43t-31 104z" />
<glyph unicode="{" horiz-adv-x="526" d="M72 463v115q37 -6 63 -7q106 0 107 138q0 76 -55.5 258t-55.5 272q0 117 60.5 207t191.5 90q47 0 90 -12v-97q-10 0 -30.5 4.5t-30.5 4.5q-164 0 -164 -203q0 -100 55 -295t55 -274q0 -86 -41 -144q41 -57 41 -143q0 -80 -55 -274.5t-55 -295.5q0 -202 162 -202h2 q10 0 30.5 4t30.5 4v-96q-43 -12 -90 -13q-131 0 -191.5 90.5t-60.5 206.5q0 90 55.5 272.5t55.5 258.5q0 137 -107 137q-27 0 -63 -6z" />
<glyph unicode="|" horiz-adv-x="399" d="M145 -512v2050h109v-2050h-109z" />
<glyph unicode="}" horiz-adv-x="526" d="M53 1427v97q43 12 90 12q131 0 191.5 -90t60.5 -207q0 -90 -55 -272.5t-55 -257.5q0 -137 106 -138q27 0 64 7v-115q-37 6 -64 6q-106 0 -106 -137q0 -76 55 -258.5t55 -272.5q0 -117 -60.5 -207t-191.5 -90q-45 1 -88 13v96q10 0 29.5 -4t30.5 -4q164 0 164 202 q0 100 -55.5 295t-55.5 275q0 86 41 143q-41 57 -41 144q0 80 55.5 274.5t55.5 294.5q0 203 -164 203q-10 0 -31 -4.5t-31 -4.5z" />
<glyph unicode="~" horiz-adv-x="821" d="M63 1212q53 180 269 181q72 0 170 -30t147 -30q78 0 109 41h10q-2 -68 -79 -126t-179 -58q-63 0 -170 33.5t-154 33.5q-70 0 -112 -49z" />
<glyph unicode="&#xa2;" horiz-adv-x="763" d="M57 721q0 109 26 210t102.5 191t195.5 107l-4 241h119l-7 -241q92 -10 147.5 -66.5t55.5 -150.5q0 -109 -71 -109q-37 0 -70 39q33 25 33 96q0 37 -28 67t-69 38l-16 -711h12q121 0 215 90q0 -106 -66.5 -160.5t-162.5 -66.5l-8 -350h-55l-7 348q-143 8 -242.5 112.5 t-99.5 315.5zM252 745q0 -133 31.5 -206.5t111.5 -96.5l-12 676q-66 -45 -98.5 -150.5t-32.5 -222.5z" />
<glyph unicode="&#xa3;" horiz-adv-x="966" d="M43 702q41 139 178 170l19 601l198 45l-20 -648q23 -6 66.5 -19t76.5 -20.5t68 -7.5q78 0 108 41h11q-2 -68 -79 -126t-180 -58q-43 0 -75 8l-19 -569q63 20 154.5 20t181.5 18.5t191 84.5q2 -18 2 -52q0 -90 -33 -140t-90 -50h-604l20 741q-25 6 -51 7q-70 0 -113 -50z " />
<glyph unicode="&#xa5;" horiz-adv-x="1026" d="M43 1526h229l299 -785l275 785h106l-338 -897h318v-72h-318v-164h316v-71h-316v-322h-221v322h-254v71h254v164h-254v72h254z" />
<glyph unicode="&#xa9;" horiz-adv-x="1134" d="M72 678q0 219 145 371.5t350 152.5t350.5 -151.5t145.5 -370.5t-145.5 -371.5t-350.5 -152.5q-203 0 -349 152.5t-146 369.5zM125 678q0 -201 131 -340t315 -139q182 0 313.5 139t131.5 340t-131 340t-314 139q-184 0 -315 -139t-131 -340zM279 688q0 133 93 218t212 85 q84 0 153.5 -49t98.5 -145l-76 -29q-12 63 -63.5 98t-116.5 35q-98 0 -154.5 -63.5t-56.5 -147.5q0 -92 56 -161.5t153 -69.5q117 0 182 100l69 -47q-43 -63 -115.5 -101t-148.5 -38q-123 0 -204.5 93t-81.5 222z" />
<glyph unicode="&#xad;" d="M121 473v143h409v-143h-409z" />
<glyph unicode="&#xae;" horiz-adv-x="1134" d="M72 684q0 219 145 371.5t350 152.5t350.5 -151.5t145.5 -370.5t-145.5 -371.5t-350.5 -152.5q-203 0 -349 152.5t-146 369.5zM125 684q0 -201 131 -340t315 -139q182 0 313.5 139t131.5 340t-131 340t-314 139q-184 0 -315 -139t-131 -340zM379 393l2 596h201 q204 0 204 -170q0 -127 -116 -160l129 -256l-76 -12l-127 254h-143v-252h-74zM453 717h135q51 0 88 23.5t37 76.5q0 94 -129 94h-131v-194z" />
<glyph unicode="&#xb4;" horiz-adv-x="587" d="M-16 1149l104 387h174l-166 -387h-112z" />
<glyph unicode="&#x2000;" horiz-adv-x="770" />
<glyph unicode="&#x2001;" horiz-adv-x="1540" />
<glyph unicode="&#x2002;" horiz-adv-x="770" />
<glyph unicode="&#x2003;" horiz-adv-x="1540" />
<glyph unicode="&#x2004;" horiz-adv-x="513" />
<glyph unicode="&#x2005;" horiz-adv-x="385" />
<glyph unicode="&#x2006;" horiz-adv-x="256" />
<glyph unicode="&#x2007;" horiz-adv-x="256" />
<glyph unicode="&#x2008;" horiz-adv-x="192" />
<glyph unicode="&#x2009;" horiz-adv-x="308" />
<glyph unicode="&#x200a;" horiz-adv-x="85" />
<glyph unicode="&#x2010;" d="M121 473v143h409v-143h-409z" />
<glyph unicode="&#x2011;" d="M121 473v143h409v-143h-409z" />
<glyph unicode="&#x2012;" d="M121 473v143h409v-143h-409z" />
<glyph unicode="&#x2013;" horiz-adv-x="776" d="M121 473v143h534v-143h-534z" />
<glyph unicode="&#x2014;" horiz-adv-x="960" d="M121 473v143h719v-143h-719z" />
<glyph unicode="&#x2018;" horiz-adv-x="425" d="M76 1176q0 100 56 209.5t132 146.5q29 -16 29 -49q0 -29 -22.5 -84.5t-22.5 -79.5q0 -41 16.5 -57.5t37 -17.5t36.5 -27.5t16 -83.5q0 -51 -43 -86t-90 -35q-145 0 -145 164z" />
<glyph unicode="&#x2019;" horiz-adv-x="419" d="M72 1411q0 51 43 86t90 35q145 0 145 -164q0 -100 -56 -209.5t-132 -146.5q-29 16 -29 49q0 29 22.5 84t22.5 80q0 41 -16.5 57t-37 17t-36.5 28t-16 84z" />
<glyph unicode="&#x201c;" horiz-adv-x="870" d="M76 1176q0 100 56 209.5t132 146.5q29 -16 29 -49q0 -29 -22.5 -84.5t-22.5 -79.5q0 -41 16.5 -57.5t37 -17.5t36.5 -27.5t16 -83.5q0 -51 -43 -86t-90 -35q-145 0 -145 164zM520 1176q0 100 56.5 209.5t132.5 146.5q29 -16 28 -49q0 -29 -22.5 -84.5t-22.5 -79.5 q0 -41 16.5 -57.5t37 -17.5t37 -27.5t16.5 -83.5q0 -51 -43 -86t-90 -35q-145 0 -146 164z" />
<glyph unicode="&#x201d;" horiz-adv-x="864" d="M72 1411q0 51 43 86t90 35q145 0 145 -164q0 -100 -56 -209.5t-132 -146.5q-29 16 -29 49q0 29 22.5 84t22.5 80q0 41 -16.5 57t-37 17t-36.5 28t-16 84zM516 1411q0 51 43 86t90 35q145 0 146 -164q0 -100 -56.5 -209.5t-132.5 -146.5q-29 16 -28 49q0 29 22.5 84 t22.5 80q0 41 -16.5 57t-37 17t-37 28t-16.5 84z" />
<glyph unicode="&#x2022;" horiz-adv-x="518" d="M90 546.5q0 71.5 49 121t119 49.5t120 -49.5t50 -120.5q0 -70 -49 -119t-121 -49q-70 0 -119 48t-49 119.5z" />
<glyph unicode="&#x2026;" horiz-adv-x="1415" d="M78 125q0 55 40 96t95 41t96 -41t41 -96t-41 -95t-96 -40q-57 0 -96 39t-39 96zM563 125q0 55 40 96t95.5 41t96.5 -41t41 -96t-41 -95t-97 -40q-57 0 -96 39t-39 96zM1065 125q0 55 40 96t95 41t96 -41t41 -96t-41 -95t-96 -40q-57 0 -96 39t-39 96z" />
<glyph unicode="&#x202f;" horiz-adv-x="308" />
<glyph unicode="&#x205f;" horiz-adv-x="385" />
<glyph unicode="&#x20ac;" horiz-adv-x="1261" d="M57 602v82h146v33q0 80 4 121h-150v82h156q16 125 51 230t95.5 194.5t157.5 140.5t222 51q164 0 273.5 -83t109.5 -236q0 -143 -108 -144q-63 0 -96 37q18 14 33.5 60.5t15.5 101.5q0 94 -46.5 142t-125.5 48q-147 0 -233.5 -152.5t-108.5 -389.5h428v-82h-435 q-2 -29 -2 -86v-68h437v-82h-430q47 -479 428 -479q188 0 288 119l54 -52q-152 -223 -461 -223q-246 0 -389.5 161t-163.5 474h-150z" />
<glyph unicode="&#x2122;" horiz-adv-x="991" d="M102 1219q0 55 45.5 92t137.5 37q35 0 82 -7.5t71 -7.5q39 0 72 13q2 -8 2 -23q0 -49 -66 -49q-18 0 -100 14v-401h-65v411q-10 2 -27 2q-104 0 -104 -86q0 -57 24 -86q-72 0 -72 91zM522 887l66 452h59l66 -358l67 358h70l45 -452h-72l-35 319l-61 -319h-65l-56 315 l-47 -315h-37z" />
<glyph unicode="&#xe000;" horiz-adv-x="1145" d="M0 1145h1145v-1145h-1145v1145z" />
</font>
</defs>
</svg>
